Pete Tong Essential Selection BBC Radio 1
Pete Tong Essential Selection
2014-10-24 - Pete Tong Essential Selection

cue-sheet:

PERFORMER "Pete Tong"
TITLE "The Essential Selection (2014-10-24) (Incl. Gardens Of God Guestmix) [TALiON]"
FILE "The Essential Selection (2014-10-24).mp3" MP3
  TRACK 01 AUDIO
    PERFORMER "Sander Kleinenberg feat. Gwen McCrea"
    TITLE "Can You Feel It?"
    INDEX 01 00:00:00
  TRACK 02 AUDIO
    PERFORMER "Deorro feat. DyCy"
    TITLE "Five Hours (Don't Hold Me Back) (Vocal Mix)"
    INDEX 01 02:44:47
  TRACK 03 AUDIO
    PERFORMER "Hardwell feat. Chris Jones"
    TITLE "Young Again"
    INDEX 01 05:16:68
  TRACK 04 AUDIO
    PERFORMER "Embody feat. Obenewa"
    TITLE "Bad News"
    INDEX 01 07:33:73
  TRACK 05 AUDIO
    PERFORMER "Calvin Harris"
    TITLE "Slow Acid"
    INDEX 01 10:20:35
  TRACK 06 AUDIO
    PERFORMER "The Chemical Brothers feat. Miguel"
    TITLE "This Is Not A Game"
    INDEX 01 13:43:58
  TRACK 07 AUDIO
    PERFORMER "Julio Bashmore feat. J'Danna"
    TITLE "Rhythm Of Auld"
    INDEX 01 16:43:25
  TRACK 08 AUDIO
    PERFORMER "Art Department feat. Seth Troxler"
    TITLE "Cruel Intentions"
    INDEX 01 20:36:61
  TRACK 09 AUDIO
    PERFORMER "Hot Since 82 feat. Alex Mills"
    TITLE "Restless"
    INDEX 01 26:22:11
  TRACK 10 AUDIO
    PERFORMER "Michel Cleis & Klement Bonelli"
    TITLE "Marvinello [Essential New Tune]"
    INDEX 01 30:16:49
  TRACK 11 AUDIO
    PERFORMER "Watermt"
    TITLE "Bullit (Icarus Remix)"
    INDEX 01 35:53:55
  TRACK 12 AUDIO
    PERFORMER "Club Scouts"
    TITLE "Subb-an talks about the Rainbow venues in Birmingham"
    INDEX 01 39:50:04
  TRACK 13 AUDIO
    PERFORMER "Mathew Jonson"
    TITLE "Decompression"
    INDEX 01 42:47:17
  TRACK 14 AUDIO
    PERFORMER "Sam Sure"
    TITLE "Hunger (Shadow Child Remix)"
    INDEX 01 44:36:10
  TRACK 15 AUDIO
    PERFORMER "Tazer"
    TITLE "Wet Dollars"
    INDEX 01 48:46:31
  TRACK 16 AUDIO
    PERFORMER "Jesse Rose & Troz"
    TITLE "Chocolate (Dark Chocolate Version)"
    INDEX 01 52:39:44
  TRACK 17 AUDIO
    PERFORMER "Nathan Boratto feat. Room 303"
    TITLE "Everytime I See You (Volkoder Remix)"
    INDEX 01 56:32:42
  TRACK 18 AUDIO
    PERFORMER "Bonar Bradberry"
    TITLE "3two5 (Kiwi Remix)"
    INDEX 01 60:56:08
  TRACK 19 AUDIO
    PERFORMER "Pete Tong's Hall Of Fame"
    TITLE "David Morales on the phone (1/3)"
    INDEX 01 64:38:53
  TRACK 20 AUDIO
    PERFORMER "MFSB"
    TITLE "Love Is The Message"
    INDEX 01 69:05:11
  TRACK 21 AUDIO
    PERFORMER "Pete Tong's Hall Of Fame"
    TITLE "David Morales on the phone (2/3)"
    INDEX 01 70:25:00
  TRACK 22 AUDIO
    PERFORMER "David Morales pres. The Face"
    TITLE "Needin' U (Original Mistake)"
    INDEX 01 72:02:53
  TRACK 23 AUDIO
    PERFORMER "Pete Tong's Hall Of Fame"
    TITLE "David Morales on the phone (3/3)"
    INDEX 01 73:03:28
  TRACK 24 AUDIO
    PERFORMER "Hercules & Love Affair feat. Krystle Warren"
    TITLE "My Offence (David Morales Epic Red Zone Mix)"
    INDEX 01 75:34:14
  TRACK 25 AUDIO
    PERFORMER "The Juan MacLean"
    TITLE "A Simple Design (Deetron Remix)"
    INDEX 01 79:36:66
  TRACK 26 AUDIO
    PERFORMER "Steve Lawler"
    TITLE "The Most Beautiful Girl"
    INDEX 01 84:19:29
  TRACK 27 AUDIO
    PERFORMER "Russ Chimes pres. Terraza"
    TITLE "Baiona"
    INDEX 01 88:59:71
  TRACK 28 AUDIO
    PERFORMER "Tiga"
    TITLE "Bugatti (Eats Everything Cortina Version)"
    INDEX 01 93:09:07
  TRACK 29 AUDIO
    PERFORMER "Eskuche & Nu Sky"
    TITLE "The Future"
    INDEX 01 98:04:18
  TRACK 30 AUDIO
    PERFORMER "Gardens Of God"
    TITLE "Fiddler"
    INDEX 01 102:10:36
  TRACK 31 AUDIO
    PERFORMER "Apollonia"
    TITLE "June"
    INDEX 01 105:01:41
  TRACK 32 AUDIO
    PERFORMER "Gabriel Rios"
    TITLE "Gold (Thomas Jack Remix)"
    INDEX 01 109:42:64
  TRACK 33 AUDIO
    PERFORMER "Talamanca System"
    TITLE "Balanzat"
    INDEX 01 112:13:04
  TRACK 34 AUDIO
    PERFORMER "Ali Love"
    TITLE "Perfect Picture"
    INDEX 01 114:07:68
  TRACK 35 AUDIO
    PERFORMER "Submotion Orchestra"
    TITLE "Swan Song (Kidnap Kid Remix)"
    INDEX 01 116:40:49
  TRACK 36 AUDIO
    PERFORMER "SchwaB"
    TITLE "DJs In A Row"
    INDEX 01 120:00:53
  TRACK 37 AUDIO
    PERFORMER "Tiga"
    TITLE "Pleasure From The Bass"
    INDEX 01 122:47:71
  TRACK 38 AUDIO
    PERFORMER "Chab feat. JD Davis"
    TITLE "Closer To Me"
    INDEX 01 126:34:52
  TRACK 39 AUDIO
    PERFORMER "The Shapeshifters"
    TITLE "Lola's Theme"
    INDEX 01 131:04:20
  TRACK 40 AUDIO
    PERFORMER "Juliet"
    TITLE "Avalon (Jacques Lu Cont Mix)"
    INDEX 01 136:33:41
  TRACK 41 AUDIO
    PERFORMER "Pulshar"
    TITLE "So Tired"
    INDEX 01 140:02:38
  TRACK 42 AUDIO
    PERFORMER "Aki Bergen"
    TITLE "First Glimpse"
    INDEX 01 145:59:06
  TRACK 43 AUDIO
    PERFORMER "Koellectronic"
    TITLE "Sutra"
    INDEX 01 150:41:60
  TRACK 44 AUDIO
    PERFORMER "Christian Lffler feat. Gry"
    TITLE "All Comes (Mind Against Remix)"
    INDEX 01 157:11:49
  TRACK 45 AUDIO
    PERFORMER "Frankie Valentine"
    TITLE "Zumbi (Henrik Schwarz Dub Remix)"
    INDEX 01 163:25:45
  TRACK 46 AUDIO
    PERFORMER "Vincenzo feat. Minako"
    TITLE "Just Like Heaven (Dave DK Remix)"
    INDEX 01 167:46:31
  TRACK 47 AUDIO
    PERFORMER "Johannes Brecht"
    TITLE "Fallen Angel"
    INDEX 01 173:09:37

Скачать cue | Назад