Pete Tong Essential Selection BBC Radio 1
Pete Tong Essential Selection
2015-12-18 - Pete Tong Essential Selection

cue-sheet:

PERFORMER "Pete Tong"
TITLE "The Essential Selection (2015-12-18) (Incl. Dennis Ferrer Guestmix) (The Class of 2015) [TALiON]"
FILE "The Essential Selection (2015-12-18).mp3" MP3
  TRACK 01 AUDIO
    PERFORMER "Julio Bashmore feat. Sam Dew"
    TITLE "Holding On"
    INDEX 01 00:00:00
  TRACK 02 AUDIO
    PERFORMER "Butch"
    TITLE "Dope"
    INDEX 01 03:39:43
  TRACK 03 AUDIO
    PERFORMER "Denney"
    TITLE "Low Frequency (Vocal Version)"
    INDEX 01 07:49:00
  TRACK 04 AUDIO
    PERFORMER "Calvin Harris & Disciples"
    TITLE "How Deep Is Your Love"
    INDEX 01 10:35:20
  TRACK 05 AUDIO
    PERFORMER "Fono"
    TITLE "Real Joy"
    INDEX 01 13:59:71
  TRACK 06 AUDIO
    PERFORMER "Adesse Versions"
    TITLE "Pride"
    INDEX 01 18:32:48
  TRACK 07 AUDIO
    PERFORMER "Bob Moses"
    TITLE "Tearing Me Up (Live from Maida Vale Session)"
    INDEX 01 22:05:13
  TRACK 08 AUDIO
    PERFORMER "Mura Masa"
    TITLE "Lovesick Fuck"
    INDEX 01 29:06:21
  TRACK 09 AUDIO
    PERFORMER "Axel Boman"
    TITLE "Nokturn (Grand Finale)"
    INDEX 01 32:31:20
  TRACK 10 AUDIO
    PERFORMER "DJ Koze"
    TITLE "XTC"
    INDEX 01 36:29:49
  TRACK 11 AUDIO
    PERFORMER "Michel Cleis & Klement Bonelli feat. Martin Wilson"
    TITLE "Marvinello"
    INDEX 01 42:00:03
  TRACK 12 AUDIO
    PERFORMER "Tale Of Us & Mind Against"
    TITLE "Astral"
    INDEX 01 44:44:11
  TRACK 13 AUDIO
    PERFORMER "Jamie xx feat. Romy"
    TITLE "Loud Places"
    INDEX 01 50:42:59
  TRACK 14 AUDIO
    PERFORMER "Barnt"
    TITLE "Chappell"
    INDEX 01 55:04:27
  TRACK 15 AUDIO
    PERFORMER "Floorplan"
    TITLE "Ritual"
    INDEX 01 58:18:25
  TRACK 16 AUDIO
    PERFORMER "Damian Lazarus & The Ancient Moons"
    TITLE "Vermillion (Jamie Jones Pupkit Remix)"
    INDEX 01 62:45:21
  TRACK 17 AUDIO
    PERFORMER "CamelPhat"
    TITLE "Constellations"
    INDEX 01 67:22:27
  TRACK 18 AUDIO
    PERFORMER "DJ Dozia"
    TITLE "Pop Culture (Joris Voorn Remix)"
    INDEX 01 72:02:11
  TRACK 19 AUDIO
    PERFORMER "Bicep"
    TITLE "Just"
    INDEX 01 77:33:07
  TRACK 20 AUDIO
    PERFORMER "George FitzGerald feat. Lawrence Hart"
    TITLE "Call It Love (If You Want To) (Scuba's Angel Dust Mix)"
    INDEX 01 82:29:33
  TRACK 21 AUDIO
    PERFORMER "Kollektiv Turmstrasse"
    TITLE "Sorry I Am Late"
    INDEX 01 87:18:50
  TRACK 22 AUDIO
    PERFORMER "Frankey & Sandrino"
    TITLE "Acamar"
    INDEX 01 92:20:15
  TRACK 23 AUDIO
    PERFORMER "Mind Against & Somne"
    TITLE "Vertere"
    INDEX 01 97:19:09
  TRACK 24 AUDIO
    PERFORMER "Raumakustik"
    TITLE "Raider"
    INDEX 01 103:06:48
  TRACK 25 AUDIO
    PERFORMER "Klsch"
    TITLE "Unterwegs"
    INDEX 01 106:54:41
  TRACK 26 AUDIO
    PERFORMER "Elderbrook x Andhim"
    TITLE "How Many Times"
    INDEX 01 111:31:70
  TRACK 27 AUDIO
    PERFORMER "Love Over Entropy"
    TITLE "Tonii (Dixon Retouch)"
    INDEX 01 116:24:66
  TRACK 28 AUDIO
    PERFORMER "Jonas Rathsman"
    TITLE "Wolfsbane"
    INDEX 01 121:48:03
  TRACK 29 AUDIO
    PERFORMER "Dominica"
    TITLE "Gotta Let You Go (Bicep Edit)"
    INDEX 01 127:03:52
  TRACK 30 AUDIO
    PERFORMER "Solomun"
    TITLE "Zora"
    INDEX 01 131:56:20
  TRACK 31 AUDIO
    PERFORMER "Ki Creighton"
    TITLE "Get Together"
    INDEX 01 137:08:73
  TRACK 32 AUDIO
    PERFORMER "Roland Appel"
    TITLE "Dark Soldier"
    INDEX 01 141:38:71
  TRACK 33 AUDIO
    PERFORMER "Seinabo Sey vs. Empire Of The Sun"
    TITLE "Hard Time (Pot Remix) vs. Walking On A Dream"
    INDEX 01 147:22:27
  TRACK 34 AUDIO
    PERFORMER "Forrest & Christoph"
    TITLE "25"
    INDEX 01 153:16:16
  TRACK 35 AUDIO
    PERFORMER "Truncate & Jimmy"
    TITLE "Submission"
    INDEX 01 159:00:48
  TRACK 36 AUDIO
    PERFORMER "Frankey & Sandrino feat. Ia berg"
    TITLE "Ways Of The Sun"
    INDEX 01 162:03:44
  TRACK 37 AUDIO
    PERFORMER "Tensnake"
    TITLE "The Walk (Andr Hommen Remix)"
    INDEX 01 168:51:71
  TRACK 38 AUDIO
    PERFORMER "Dele Sosimi Afrobeat Orchestra"
    TITLE "Too Much Information (Laolu Remix)"
    INDEX 01 174:01:43

Скачать cue | Назад