Pete Tong Essential Selection BBC Radio 1
Pete Tong Essential Selection
2016-09-02 - Pete Tong Essential Selection

cue-sheet:

PERFORMER "Pete Tong"
TITLE "The Essential Selection (2016-09-02) (Incl. The Martinez Brothers Guestmix) [TALiON]"
FILE "The Essential Selection (2016-09-02).mp3" MP3
  TRACK 01 AUDIO
    PERFORMER "Kanye West vs. Mr. Fingers"
    TITLE "Fade (GotSome Edit)"
    INDEX 01 00:00:00
  TRACK 02 AUDIO
    PERFORMER "Rudimental feat. J Angel"
    TITLE "Healing"
    INDEX 01 03:20:44
  TRACK 03 AUDIO
    PERFORMER "Jax Jones feat. Mike Dunn & MNEK"
    TITLE "House Work (Mele Remix)"
    INDEX 01 07:32:08
  TRACK 04 AUDIO
    PERFORMER "Rebecca & Fiona"
    TITLE "Drugstore Lovin' (The Him Remix)"
    INDEX 01 10:22:45
  TRACK 05 AUDIO
    PERFORMER "deadmau5"
    TITLE "Strobe (Lane 8 Remix)"
    INDEX 01 13:37:14
  TRACK 06 AUDIO
    PERFORMER "Purple Disco Machine"
    TITLE "Walls"
    INDEX 01 17:45:57
  TRACK 07 AUDIO
    PERFORMER "808 State"
    TITLE "In Yer Face (Bicep Remix)"
    INDEX 01 21:34:05
  TRACK 08 AUDIO
    PERFORMER "Guy Gerber"
    TITLE "Secret Encounters"
    INDEX 01 25:41:15
  TRACK 09 AUDIO
    PERFORMER "Dear David"
    TITLE "Fever Radio"
    INDEX 01 30:25:31
  TRACK 10 AUDIO
    PERFORMER "Sasha"
    TITLE "Track 10 [Essential New Tune]"
    INDEX 01 33:48:16
  TRACK 11 AUDIO
    PERFORMER "Summer & Swyft"
    TITLE "Mirage"
    INDEX 01 39:20:46
  TRACK 12 AUDIO
    PERFORMER "Lex Luca"
    TITLE "Do It"
    INDEX 01 44:03:70
  TRACK 13 AUDIO
    PERFORMER "Andrea Oliva"
    TITLE "Scream"
    INDEX 01 48:27:05
  TRACK 14 AUDIO
    PERFORMER "wAFF"
    TITLE "Kidney Punch"
    INDEX 01 52:18:12
  TRACK 15 AUDIO
    PERFORMER "Mighty Dub Katz"
    TITLE "Let The Drums Speak (Butch Remix)"
    INDEX 01 56:23:65
  TRACK 16 AUDIO
    PERFORMER "Cristoph feat. Jinadu"
    TITLE "Closer (Hot Since 82 Remix)"
    INDEX 01 61:00:44
  TRACK 17 AUDIO
    PERFORMER "Pete Tong's Hall Of Fame"
    TITLE "Chase & Status (1/6)"
    INDEX 01 64:54:26
  TRACK 18 AUDIO
    PERFORMER "Konflict"
    TITLE "Messiah"
    INDEX 01 67:11:20
  TRACK 19 AUDIO
    PERFORMER "Pete Tong's Hall Of Fame"
    TITLE "Chase & Status (2/6)"
    INDEX 01 69:51:64
  TRACK 20 AUDIO
    PERFORMER "Chase & Status feat. Capleton"
    TITLE "Duppy Man"
    INDEX 01 72:29:24
  TRACK 21 AUDIO
    PERFORMER "Pete Tong's Hall Of Fame"
    TITLE "Chase & Status (3/6)"
    INDEX 01 74:40:67
  TRACK 22 AUDIO
    PERFORMER "The Prodigy"
    TITLE "Poison (95 EQ)"
    INDEX 01 76:32:73
  TRACK 23 AUDIO
    PERFORMER "Pete Tong's Hall Of Fame"
    TITLE "Chase & Status (4/6)"
    INDEX 01 78:51:34
  TRACK 24 AUDIO
    PERFORMER "Chase & Status feat. Plan B"
    TITLE "End Credits"
    INDEX 01 81:56:35
  TRACK 25 AUDIO
    PERFORMER "Pete Tong's Hall Of Fame"
    TITLE "Chase & Status (5/6)"
    INDEX 01 83:26:24
  TRACK 26 AUDIO
    PERFORMER "UK Apachi & Shy FX"
    TITLE "Original Nuttah"
    INDEX 01 83:57:35
  TRACK 27 AUDIO
    PERFORMER "Pete Tong's Hall Of Fame"
    TITLE "Chase & Status (6/6)"
    INDEX 01 86:44:64
  TRACK 28 AUDIO
    PERFORMER "Chase & Status feat. George The Poet"
    TITLE "Spoken Word"
    INDEX 01 88:28:40
  TRACK 29 AUDIO
    PERFORMER "The Essential Selection"
    TITLE "Interlude"
    INDEX 01 91:33:23
  TRACK 30 AUDIO
    PERFORMER "Bernard Badie & Dajae"
    TITLE "Tonight (Git Down Tonight Dub)"
    INDEX 01 92:31:14
  TRACK 31 AUDIO
    PERFORMER "Zappe"
    TITLE "Larry's Exotic Blend"
    INDEX 01 97:51:07
  TRACK 32 AUDIO
    PERFORMER "The Martinez Brothers feat. Miss Kittin"
    TITLE "Stuff In The Trunk"
    INDEX 01 101:45:30
  TRACK 33 AUDIO
    PERFORMER "Tomi D."
    TITLE "You Are An Angel"
    INDEX 01 105:19:00
  TRACK 34 AUDIO
    PERFORMER "Heaven 17"
    TITLE "Play To Win (The Martinez Brothers Edit)"
    INDEX 01 109:41:51
  TRACK 35 AUDIO
    PERFORMER "Adapta"
    TITLE "MKS-50_01"
    INDEX 01 113:36:52
  TRACK 36 AUDIO
    PERFORMER "Brett Johnson & Mikey V"
    TITLE "Runaway (Main Mix)"
    INDEX 01 118:27:57
  TRACK 37 AUDIO
    PERFORMER "Josh Wink"
    TITLE "Shoelaces (Truncate Remix)"
    INDEX 01 120:52:07
  TRACK 38 AUDIO
    PERFORMER "Andrea Oliva"
    TITLE "Vermona (Steve Rachmad Remix)"
    INDEX 01 124:08:49
  TRACK 39 AUDIO
    PERFORMER "Melvin Meeks"
    TITLE "Peace Of Mind"
    INDEX 01 128:23:51
  TRACK 40 AUDIO
    PERFORMER "Nina Kraviz"
    TITLE "Show Me Your Time"
    INDEX 01 133:35:17
  TRACK 41 AUDIO
    PERFORMER "Cubicolor"
    TITLE "Brainsugar"
    INDEX 01 135:41:38
  TRACK 42 AUDIO
    PERFORMER "Joachim Pastor"
    TITLE "7 Seals"
    INDEX 01 139:57:01
  TRACK 43 AUDIO
    PERFORMER "andhim"
    TITLE "Super"
    INDEX 01 144:44:33
  TRACK 44 AUDIO
    PERFORMER "Theo Kottis"
    TITLE "Running Nowhere"
    INDEX 01 149:07:70
  TRACK 45 AUDIO
    PERFORMER "Vessels"
    TITLE "Are You Trending? (Darkline Remix)"
    INDEX 01 154:11:12
  TRACK 46 AUDIO
    PERFORMER "Yotto"
    TITLE "Cooper's Cup"
    INDEX 01 159:16:16
  TRACK 47 AUDIO
    PERFORMER "CamelPhat & Kydus"
    TITLE "Journey"
    INDEX 01 164:03:44
  TRACK 48 AUDIO
    PERFORMER "Booka Shade"
    TITLE "In White Rooms (Jonas Rathsman Reprise)"
    INDEX 01 169:43:68
  TRACK 49 AUDIO
    PERFORMER "Kollektiv Turmstrasse"
    TITLE "Sorry I'm Late (Pig & Dan Remix)"
    INDEX 01 175:20:64

Скачать cue | Назад