Pete Tong Essential Selection BBC Radio 1
Pete Tong Essential Selection
2017-05-19 - Pete Tong Essential Selection

cue-sheet:

PERFORMER "Pete Tong"
TITLE "The Essential Selection (2017-05-19) (Incl. Sam Divine Tag Team Mix) [TALiON]"
FILE "The Essential Selection (2017-05-19).mp3" MP3
  TRACK 01 AUDIO
    PERFORMER "Kid Creme feat. Jolyon Petch"
    TITLE "Boy In The Picture"
    INDEX 01 00:00:00
  TRACK 02 AUDIO
    PERFORMER "The Shapeshifters"
    TITLE "Lola's Theme (Purple Disco Machine Remix)"
    INDEX 01 03:47:55
  TRACK 03 AUDIO
    PERFORMER "Yotto"
    TITLE "Wilderness Girl"
    INDEX 01 07:12:26
  TRACK 04 AUDIO
    PERFORMER "Marian Hill"
    TITLE "Down (Franky Rizardo Remix)"
    INDEX 01 10:39:17
  TRACK 05 AUDIO
    PERFORMER "Axwell & Ingrosso"
    TITLE "Renegade"
    INDEX 01 14:15:71
  TRACK 06 AUDIO
    PERFORMER "The Magician & Julian Perretta"
    TITLE "Tied Up (offaiah Remix)"
    INDEX 01 17:19:58
  TRACK 07 AUDIO
    PERFORMER "Mabel feat. Kojo Funds"
    TITLE "Finders Keepers (Mele Remix)"
    INDEX 01 21:04:32
  TRACK 08 AUDIO
    PERFORMER "Maya Jane Coles"
    TITLE "Cherry Bomb"
    INDEX 01 24:43:02
  TRACK 09 AUDIO
    PERFORMER "RAC feat. Rostam"
    TITLE "This Song (Lindstrom & Prins Thomas Remix)"
    INDEX 01 29:05:13
  TRACK 10 AUDIO
    PERFORMER "Kolsch"
    TITLE "PUSH [Essential New Tune]"
    INDEX 01 33:05:02
  TRACK 11 AUDIO
    PERFORMER "Callum Beattie"
    TITLE "We Are Stars (Riva Starr Remix)"
    INDEX 01 39:20:73
  TRACK 12 AUDIO
    PERFORMER "Anthony Attalla"
    TITLE "Rock The Beat"
    INDEX 01 43:21:12
  TRACK 13 AUDIO
    PERFORMER "ZDS"
    TITLE "Bang"
    INDEX 01 47:22:41
  TRACK 14 AUDIO
    PERFORMER "L'Tric"
    TITLE "The Way You Are (Pirupa Remix)"
    INDEX 01 51:06:44
  TRACK 15 AUDIO
    PERFORMER "Dillon Francis feat. G-Eazy"
    TITLE "Say Less (Gorgon City Remix)"
    INDEX 01 54:42:43
  TRACK 16 AUDIO
    PERFORMER "Raumakustik"
    TITLE "Get Together"
    INDEX 01 58:18:30
  TRACK 17 AUDIO
    PERFORMER "CamelPhat & Kydus"
    TITLE "Journey"
    INDEX 01 63:33:41
  TRACK 18 AUDIO
    PERFORMER "Acid Mondays"
    TITLE "We End In A Dream"
    INDEX 01 68:22:72
  TRACK 19 AUDIO
    PERFORMER "Para One"
    TITLE "Opium"
    INDEX 01 74:37:32
  TRACK 20 AUDIO
    PERFORMER "London Grammar"
    TITLE "Oh Woman Oh Man (Tiga Remix)"
    INDEX 01 77:52:45
  TRACK 21 AUDIO
    PERFORMER "N'to"
    TITLE "Carrousel"
    INDEX 01 82:23:28
  TRACK 22 AUDIO
    PERFORMER "Maggie Rogers"
    TITLE "Alaska (Kolsch Remix)"
    INDEX 01 86:39:25
  TRACK 23 AUDIO
    PERFORMER "Shanti Celeste"
    TITLE "Make Time"
    INDEX 01 91:50:03
  TRACK 24 AUDIO
    PERFORMER "Franck Roger"
    TITLE "Bring It Back (Maya Jane Coles Remix)"
    INDEX 01 96:14:39
  TRACK 25 AUDIO
    PERFORMER "Chaka"
    TITLE "RS Edit"
    INDEX 01 100:33:48
  TRACK 26 AUDIO
    PERFORMER "Sam Divine & CASSIMM"
    TITLE "Can't Stop The House"
    INDEX 01 103:26:39
  TRACK 27 AUDIO
    PERFORMER "Paolo Paleologo vs. Eli Escobar"
    TITLE "Kalimbana vs. Chaka Khan (Acapella)"
    INDEX 01 107:58:49
  TRACK 28 AUDIO
    PERFORMER "Wheats"
    TITLE "Sensate"
    INDEX 01 110:10:38
  TRACK 29 AUDIO
    PERFORMER "Freedom B"
    TITLE "If You Believe"
    INDEX 01 113:56:39
  TRACK 30 AUDIO
    PERFORMER "Todd Terry"
    TITLE "Frisco Disco"
    INDEX 01 118:06:55
  TRACK 31 AUDIO
    PERFORMER "Eli Escobar feat. Nomi Ruiz"
    TITLE "Can't Stop Dancing (Dub)"
    INDEX 01 123:09:08
  TRACK 32 AUDIO
    PERFORMER "Frankie Knuckles presents Satoshi Tomiie"
    TITLE "Tears (Classic Vocal)"
    INDEX 01 126:00:08
  TRACK 33 AUDIO
    PERFORMER "Boxed In"
    TITLE "Pushing On"
    INDEX 01 132:09:44
  TRACK 34 AUDIO
    PERFORMER "Vera"
    TITLE "In And Out Of Love"
    INDEX 01 136:05:53
  TRACK 35 AUDIO
    PERFORMER "Sam Gellaitry"
    TITLE "Midnight Racer"
    INDEX 01 138:30:19
  TRACK 36 AUDIO
    PERFORMER "Dino Lenny"
    TITLE "This Time We Take It Easy (Agoria Re-Work)"
    INDEX 01 142:01:43
  TRACK 37 AUDIO
    PERFORMER "New Order"
    TITLE "Fine Time"
    INDEX 01 146:11:31
  TRACK 38 AUDIO
    PERFORMER "Adana Twins"
    TITLE "Flower Of Cane"
    INDEX 01 150:08:53
  TRACK 39 AUDIO
    PERFORMER "Kolsch"
    TITLE "Goodbye"
    INDEX 01 153:54:09
  TRACK 40 AUDIO
    PERFORMER "Patrice Baumel"
    TITLE "Glutes"
    INDEX 01 159:33:59
  TRACK 41 AUDIO
    PERFORMER "Jonas Rathsman"
    TITLE "Within Borders"
    INDEX 01 164:09:44
  TRACK 42 AUDIO
    PERFORMER "Sasha & Darren Emerson"
    TITLE "Scorchio (OC & Verde Edit)"
    INDEX 01 170:26:55
  TRACK 43 AUDIO
    PERFORMER "Sander Kleinenberg"
    TITLE "My Lexicon"
    INDEX 01 176:24:70

Скачать cue | Назад